#TITLE:1989;
#SUBTITLE:- Darkness Of The Night;
#ARTIST:Osamu Kubota;
#TITLETRANSLIT:;
#SUBTITLETRANSLIT:;
#ARTISTTRANSLIT:;
#CREDIT:;
#BANNER:;
#BACKGROUND:;
#LYRICSPATH:;
#CDTITLE:;
#MUSIC:1989.mp3;
#MUSICLENGTH:96.130;
#OFFSET:-0.040;
#SAMPLESTART:75.605;
#SAMPLELENGTH:12.000;
#SELECTABLE:YES;
#BPMS:0.000=88.000,72.000=176.000,150.000=88.000;
#STOPS:;
#BGCHANGES:;
#FIRSTBEAT:4.000;

#LASTBEAT:179.000;

#SONGFILENAME:Songs/EXTRA/1989/1989.sm;

#HASMUSIC:1;

#HASBANNER:0;


//---------------dance-single - MANIAC----------------
#NOTES:
     dance-single:
     MANIAC:
     hard:
     9:
     0.568,0.628,0.302,0.135,0.416,340.000,29.000,13.000,0.000,1.000:  // measure 1
0000
0000
0000
0000
,  // measure 2
0000
0000
0001
0010
0001
1000
0100
1000
0010
0000
0010
0000
0000
0000
0110
0000
,  // measure 3
0000
0000
0100
0010
0001
0010
0100
1000
0100
0000
0100
0000
0010
0001
0010
0100
,  // measure 4
0010
0000
0010
0000
0100
1000
0001
0100
0001
0000
0011
0000
0000
0000
1100
0000
,  // measure 5
0000
0000
1000
0100
0010
0100
0010
1000
0010
0000
0010
0000
0000
0000
1010
0000
,  // measure 6
0000
0000
0010
0001
1000
0100
1000
0010
0100
0000
0100
0000
0000
0000
0101
0000
,  // measure 7
0000
0000
0100
0010
0100
0001
1000
0100
0010
0000
0010
0000
0010
1000
0001
0100
,  // measure 8
0010
0000
0010
0000
0001
1000
0100
1000
0100
0000
1100
0000
0000
0000
0011
0000
,  // measure 9
0000
0000
0100
0010
0100
0001
0100
0010
0100
0000
0110
0000
0000
0000
0110
0000
,  // measure 10
0000
0000
0100
0010
0100
1000
0100
0010
0100
0000
0110
0000
0000
0000
0101
0000
,  // measure 11
0000
0000
0010
0001
0100
0001
0010
0100
1000
0000
1000
0100
0010
0001
0100
0010
,  // measure 12
0100
0000
0100
0001
1000
0100
1000
0010
0001
0000
0001
0010
1000
0100
2000
0000
,  // measure 13
3000
0100
0010
0100
0001
0000
1000
0100
0010
0000
0010
0100
1000
0000
0000
0000
,  // measure 14
2001
0000
0020
0230
,  // measure 15
3300
0000
0010
0001
0100
0010
0100
0001
1000
0000
1000
0000
0000
0000
0110
0000
,  // measure 16
0000
0000
0100
0010
0100
0010
0100
0010
1000
0000
1000
0000
0000
0000
0011
0000
,  // measure 17
0000
0000
0010
0001
0010
0100
0010
0100
1000
0000
1000
0000
0010
0100
0001
0010
,  // measure 18
0100
0000
1100
0000
0110
0100
0010
0100
0001
0000
1001
0000
0000
0000
0000
0000
,  // measure 19
0010
1000
0100
1000
0010
0001
0010
0100
,  // measure 20
0010
0100
0001
0100
1000
0100
0001
0010
,  // measure 21
0100
1000
0100
0001
0100
1000
0010
1000
,  // measure 22
0100
1000
0001
0100
0001
1000
0100
0010
,  // measure 23
0100
1000
0010
0100
0001
0100
0010
0100
,  // measure 24
0001
0010
0001
1000
0100
1000
0100
0001
,  // measure 25
0100
0010
0001
0010
1000
0010
0100
0001
,  // measure 26
1000
0100
1000
0010
0100
0010
0010
0000
,  // measure 27
1001
0000
0100
0010
0001
1000
0010
0100
,  // measure 28
0010
0001
0010
1000
0100
1000
0010
0100
,  // measure 29
0001
0010
0001
0000
0100
0000
0010
0000
0100
0000
0100
0000
1000
0000
0100
0000
,  // measure 30
0010
0100
0010
0100
0001
0010
0001
0000
,  // measure 31
1200
0000
0000
0310
0000
0000
0012
0000
,  // measure 32
0000
1003
0000
0000
0201
0000
0000
0310
,  // measure 33
0000
0000
0000
0000
0000
0000
1000
0001
1000
0001
1000
0001
,  // measure 34
2000
0000
0000
3010
0000
0000
1002
0000
,  // measure 35
0000
0103
0000
0000
1020
0000
0000
0031
,  // measure 36
0000
0000
0000
1000
0010
0100
0001
0000
,  // measure 37
0120
0000
0000
0031
1000
0100
0010
0000
,  // measure 38
0000
0000
0000
0000
0000
0000
0000
0000
1001
0000
1000
0100
0010
0100
1000
0010
,  // measure 39
1000
0000
1000
0000
0000
0000
0101
0000
0000
0000
1000
0010
0100
0001
0100
0001
,  // measure 40
0010
0000
0010
0000
0000
0000
0110
0000
0000
0000
0010
0100
0001
0100
0010
1000
,  // measure 41
0100
0000
0100
0000
0010
0001
0010
0001
1000
0000
1000
0000
0100
0010
1000
0010
,  // measure 42
0001
0000
0001
0000
0000
0000
1001
0000
0000
0000
0001
1000
0001
0010
0001
0100
,  // measure 43
0010
0000
0010
0000
0010
0100
1000
0100
0010
0000
0010
0000
0000
0000
0000
0000
,  // measure 44
0000
2002
0000
0000
,  // measure 45
0000
0000
0000
3003
;

//---------------dance-single - ANOTHER----------------
#NOTES:
     dance-single:
     ANOTHER:
     medium:
     6:
     0.367,0.441,0.208,0.021,0.000,225.000,20.000,2.000,0.000,0.000:  // measure 1
0000
0000
0000
0000
,  // measure 2
1000
0000
0100
1000
0010
0100
0000
0001
,  // measure 3
0000
1000
0010
0100
0100
1000
0001
0100
,  // measure 4
0010
1000
0001
0100
0001
0011
0000
1001
,  // measure 5
0000
0100
0010
1000
0001
0100
0000
1001
,  // measure 6
0000
0100
0010
0001
0110
0100
0000
0001
,  // measure 7
0000
1000
0010
0100
0011
0100
1000
0010
,  // measure 8
0100
0001
1000
0100
0100
0100
0000
0010
,  // measure 9
0000
1000
0001
0100
0001
1000
0000
0001
,  // measure 10
0000
0010
0001
1000
0010
0100
0000
0001
,  // measure 11
0000
1000
0010
0100
0110
1000
0001
0100
,  // measure 12
0011
0100
1000
0010
1001
0100
0010
0100
,  // measure 13
1000
0001
1000
0100
0010
0001
0001
0100
,  // measure 14
0000
1000
0000
0000
0001
0000
1000
0100
,  // measure 15
0010
0000
0000
0100
1000
0010
0000
0100
,  // measure 16
0000
0001
1000
0010
0100
0110
0000
1001
,  // measure 17
0000
0100
0010
0001
0011
1100
0010
1000
,  // measure 18
0100
0001
0000
0001
0000
1000
0000
0000
,  // measure 19
1001
0000
0100
0010
0000
0001
1000
0000
,  // measure 20
0100
0000
0000
0010
0001
0000
0000
1000
,  // measure 21
0000
0000
0010
0100
0000
0001
0000
1000
,  // measure 22
0100
0000
0010
0000
0000
0001
1000
0000
,  // measure 23
0010
0100
0000
0000
0001
0000
1000
0100
,  // measure 24
0010
0001
0000
1000
0000
0000
0100
0010
,  // measure 25
0100
0000
0000
0001
1000
0000
0001
0010
,  // measure 26
0001
0000
1000
0010
0000
0000
0110
0000
,  // measure 27
0001
1000
0000
0000
0100
0000
0000
0011
,  // measure 28
0000
0100
0000
1000
0010
0000
0100
0000
,  // measure 29
0001
1000
0100
0010
,  // measure 30
0001
0000
0000
0000
0000
0010
0001
0000
,  // measure 31
1000
0000
0100
0000
0000
0010
0001
0000
,  // measure 32
0000
1000
0100
0000
0010
0000
0000
0001
,  // measure 33
1000
0000
0000
0100
0000
0010
0000
0001
,  // measure 34
0000
1000
0000
0010
0000
0100
0000
0001
,  // measure 35
0000
1000
0000
0010
0100
0000
0001
1000
,  // measure 36
0000
0100
0000
0010
0000
0001
0000
1000
,  // measure 37
0001
1000
0100
0000
0000
0010
0000
0000
,  // measure 38
0001
1000
0000
0000
1001
0000
0100
1000
,  // measure 39
0010
1000
0000
0001
0000
0100
0010
1000
,  // measure 40
0001
0100
0000
0001
0000
1000
0001
0010
,  // measure 41
0001
0001
1000
0100
1000
0010
1000
0100
,  // measure 42
0010
0011
0000
1001
0000
0010
0101
1000
,  // measure 43
0010
0100
0001
1000
0001
0100
0000
0000
,  // measure 44
0000
0220
0000
0000
,  // measure 45
0000
0000
0000
0000
0000
0330
0000
0000
;

//---------------dance-single - BASIC----------------
#NOTES:
     dance-single:
     BASIC:
     easy:
     4:
     0.327,0.419,0.811,0.021,0.000,140.000,78.000,2.000,0.000,0.000:  // measure 1
0000
0000
0000
0000
,  // measure 2
1010
0011
0110
0110
,  // measure 3
1010
0101
0110
1010
,  // measure 4
0011
0110
1001
0110
,  // measure 5
1001
0110
0011
0011
,  // measure 6
1100
1001
0011
0110
,  // measure 7
0001
1001
0010
1001
,  // measure 8
0100
0110
0110
0110
,  // measure 9
1001
0011
0100
1010
,  // measure 10
0100
0110
0011
1010
,  // measure 11
1100
1010
0110
0011
,  // measure 12
0101
0011
1001
0110
,  // measure 13
1001
1001
0011
1001
,  // measure 14
1100
1010
1001
0110
,  // measure 15
1001
0101
1001
0100
,  // measure 16
0010
0110
0110
0001
,  // measure 17
1000
1001
1001
0100
,  // measure 18
0010
0100
0001
1000
,  // measure 19
1001
0000
0001
0000
,  // measure 20
0100
0000
0000
0000
,  // measure 21
0010
0001
0000
0000
,  // measure 22
1000
0000
0000
0100
,  // measure 23
0010
0001
0000
0001
,  // measure 24
0100
0010
1000
0001
,  // measure 25
0100
0000
0010
1000
,  // measure 26
0001
0100
0010
0001
,  // measure 27
1000
0000
0000
0000
,  // measure 28
0100
0010
1000
0000
,  // measure 29
0001
0000
0100
0000
,  // measure 30
0010
0010
1000
0000
,  // measure 31
0001
0100
0010
0000
,  // measure 32
0001
0000
1000
0001
,  // measure 33
0100
0000
0010
0000
,  // measure 34
0001
1000
0010
0000
,  // measure 35
0100
0001
0000
0001
,  // measure 36
0100
0000
1000
0010
,  // measure 37
0000
0110
0000
1000
,  // measure 38
0001
0000
1001
0101
,  // measure 39
1001
0110
1010
0011
,  // measure 40
0110
1001
0110
1010
,  // measure 41
0011
0110
1001
0110
,  // measure 42
0011
1001
1010
0110
,  // measure 43
1001
0110
1001
0000
,  // measure 44
0000
2002
0000
0000
,  // measure 45
0000
0000
0000
3003
;
